Download Redbunker , Rapidshare , Torrent , Extabit , Turbobit , Hotfile , Shareflare , Netload, Rapidgator, Letitbit , Single One  Link Download  

Go Back   Download Redbunker , Rapidshare , Torrent , Extabit , Turbobit , Hotfile , Shareflare , Netload, Rapidgator, Letitbit , Single One Link Download > ..:: Movie Downloads ::.. > 2012 Movies

New Movies


ATM 2012 HDRIP x264 AC3 HQ 5 1 - HOPE

2012 Movies


Reply
 
LinkBack Thread Tools Display Modes
Old 03-04-2012, 10:12 AM   #1 (permalink)
Senior Member
 
Join Date: Feb 2012
Posts: 97,181
RMTeam is on a distinguished road
Arrow ATM 2012 HDRIP x264 AC3 HQ 5 1 - HOPE

ATM 2012 HDRIP x264 AC3 HQ 5 1 - HOPE

Click the image to open in full size.

ATM (2012)
Genre: Horror | Thriller
Directed By: David Brooks
Cast: Alice Eve, Josh Peck, Brian Geraghty
MPAA Rate: R
Storyline: On a late night visit to an ATM, three co-workers end up in a desperate fight for their lives when they become trapped by an unknown man.

Code:
    IMDB Rate: 6.1
    IMDB: http://www.imdb.com/title/tt1603257/
Information:
Format : Matroska
Format version : Version 2
File size : 864 MiB
Duration : 1h 30mn
Overall bit rate : 1 337 Kbps
Encoded date : UTC 2012-03-03 20:18:59
Writing application : mkvmerge v5.3.0 ('I could have danced') built on Feb 9 2012 10:38:07
Writing library : libebml v1.2.3 + libmatroska v1.3.0

Video
ID : 1
Format : AVC
Format/Info : Advanced Video Codec
Format profile : High@L5.1
Format settings, CABAC : Yes
Format settings, ReFrames : 6 frames
Codec ID : V_MPEG4/ISO/AVC
Duration : 1h 30mn
Bit rate : 952 Kbps
Width : 720 pixels
Height : 400 pixels
Display aspect ratio : 16:9
Frame rate : 23.976 fps
Color space : YUV
Chroma subsampling : 4:2:0
Bit depth : 8 bits
Scan type : Progressive
Bits/(Pixel*Frame) : 0.138
Stream size : 598 MiB (69%)
Writing library : x264 core 120 r2164 da19765

Audio
ID : 2
Format : AC-3
Format/Info : Audio Coding 3
Mode extension : CM (complete main)
Codec ID : A_AC3
Duration : 1h 30mn
Bit rate mode : Constant
Bit rate : 384 Kbps
Channel(s) : 6 channels
Channel positions : Front: L C R, Side: L R, LFE
Sampling rate : 48.0 KHz
Bit depth : 16 bits
Compression mode : Lossy
Stream size : 248 MiB (29%)



DOWNLOAD
Click the image to open in full size.

Click the image to open in full size.

Click the image to open in full size.


One link Direct Download: ATM 2012 HDRIP x264 AC3 HQ 5 1 - HOPE
RMTeam is offline   Reply With Quote
Reply

Tags
2012, aaron hughes, ac3, alice eve, atm, brian geraghty, david brooks, glen thompson, hdrip, hope, horror, ifile, josh peck, josh peck atm, jumbofiles, omar khan, rapidshare, robert huculak, shareonline, thriller, uploaded, will woytowich, x264

Thread Tools
Display Modes

Posting Rules
You may not post new threads
You may not post replies
You may not post attachments
You may not edit your posts

BB code is On
Smilies are On
[IMG] code is On
HTML code is Off
Trackbacks are On
Pingbacks are On
Refbacks are On


Similar Threads
Thread Thread Starter Forum Replies Last Post
Tooth Fairy 2 2012 DVDRIP x264 AC3 - HOPE Single 1 Link Full RMTeam 2012 Movies 0 03-03-2012 06:38 AM
Man on a Ledge 2012 CAM V2 x264 - HOPE RMTeam 2012 Movies 2 02-23-2012 04:26 PM
Born.Of.Hope.2009.HDRip.XviD hus2006 Download 0 12-10-2010 10:17 PM
Born Of Hope / 2009 / HDRip / MKV / 280MB mier90 Download 0 01-09-2010 09:55 AM

Yandex.Metrica
All times are GMT. The time now is 04:13 AM.



Powered by vBulletin® Version 3.8.7
Copyright ©2000 - 2014, vBulletin Solutions, Inc.
Content Relevant URLs by vBSEO