Download Redbunker , Rapidshare , Torrent , Extabit , Turbobit , Hotfile , Shareflare , Netload, Rapidgator, Letitbit , Single One  Link Download  

Go Back   Download Redbunker , Rapidshare , Torrent , Extabit , Turbobit , Hotfile , Shareflare , Netload, Rapidgator, Letitbit , Single One Link Download > Old Topics > Download

New Movies


The Notebook (2004)

Download


Reply
 
LinkBack Thread Tools Display Modes
Old 02-27-2010, 11:00 AM   #1 (permalink)
naleija
Guest
 
Posts: n/a
The Notebook (2004)

The Notebook (2004)



Click the image to open in full size.


The movie focuses on an old man reading a story to an old woman in a nursing home. The story he reads follows two young lovers named Allie Hamilton and Noah Calhoun, who meet one evening at a carnival. But they are separated by Allie's parents who dissaprove of Noah's unwealthy family, and move Allie away. After waiting for Noah to write her for several years, Allie meets and gets engaged to a handsome young soldier named Lon. Allie, then, with her love for Noah still alive, stops by Noah's 200-year-old home that he restored for her, "to see if he's okay". It is evident that they still have feelings for each other, and Allie has to choose between her fiancé and her first love.


Quote:
Format : AVI
Format/Info : Audio Video Interleave
File size : 700 MiB
Duration : 2h 3mn
Overall bit rate : 791 Kbps

Video
ID : 0
Format : MPEG-4 Visual
Codec ID : XVID
Codec ID/Hint : XviD
Duration : 2h 3mn
Bit rate : 622 Kbps
Width : 624 pixels
Height : 256 pixels
Display aspect ratio : 2.40:1
Frame rate : 23.976 fps
Resolution : 24 bits
Colorimetry : 4:2:0
Scan type : Progressive
Bits/(Pixel*Frame) : 0.163
Stream size : 551 MiB (79%)

Audio
ID : 1
Format : MPEG Audio
Format version : Version 1
Format profile : Layer 3
Codec ID : 55
Codec ID/Hint : MP3
Duration : 2h 3mn
Bit rate mode : Variable
Bit rate : 156 Kbps
Minimum bit rate : 128 Kbps
Channel(s) : 2 channels
Sampling rate : 48.0 KHz
Resolution : 16 bits
Stream size : 138 MiB (20%)
Alignment : Aligned on interleaves
Interleave, duration : 24 ms (0.58 video frame)
Interleave, preload duration : 123 m




One link Direct Download: The Notebook (2004)
  Reply With Quote
Reply

Thread Tools
Display Modes

Posting Rules
You may not post new threads
You may not post replies
You may not post attachments
You may not edit your posts

BB code is On
Smilies are On
[IMG] code is On
HTML code is Off
Trackbacks are On
Pingbacks are On
Refbacks are On


Yandex.Metrica
All times are GMT. The time now is 08:17 AM.



Powered by vBulletin® Version 3.8.7
Copyright ©2000 - 2014, vBulletin Solutions, Inc.
Content Relevant URLs by vBSEO